<?xml version="1.0" encoding="UTF-8" standalone="no"?>
<!DOCTYPE svg  PUBLIC '-//W3C//DTD SVG 1.1//EN'  'http://www.w3.org/Graphics/SVG/1.1/DTD/svg11.dtd'>
<svg xmlns="http://www.w3.org/2000/svg">
<defs>
<font id="Brown-Light" horiz-adv-x="520">
<font-face underline-position="-56" font-weight="300" descent="-200" panose-1="0 0 0 0 0 0 0 0 0 0" units-per-em="1000" unicode-range="U+0020-25CA" bbox="-20 -250 1125 910" x-height="456" underline-thickness="45" font-family="Brown" ascent="800" cap-height="700"/>
<missing-glyph horiz-adv-x="1000"/>
<glyph glyph-name=".notdef" horiz-adv-x="1000"/>
<glyph glyph-name=".null" horiz-adv-x="0"/>
<glyph glyph-name="nonmarkingreturn" horiz-adv-x="333"/>
<glyph glyph-name="space" horiz-adv-x="270" unicode=" "/>
<glyph glyph-name="exclam" horiz-adv-x="240" unicode="!" d="M68 42q0 22 15 37t37 15t37 -15t15 -37t-15 -37t-37 -15t-37 15t-15 37zM102 210l-10 246v244h57v-244l-10 -246h-37z"/>
<glyph glyph-name="quotedbl" horiz-adv-x="410" unicode='&quot;' d="M283 446l-10 254h57l-10 -254h-37zM90 446l-10 254h57l-10 -254h-37z"/>
<glyph glyph-name="numbersign" horiz-adv-x="630" unicode="#" d="M250 426l-40 -152h170l40 152h-170zM551 700l-60 -220h99v-54h-113l-40 -152h99v-54h-114l-59 -220h-57l60 220h-170l-60 -220h-57l60 220h-99v54h113l40 152h-99v54h114l59 220h57l-59 -220h170l59 220h57z"/>
<glyph glyph-name="dollar" horiz-adv-x="516" unicode="$" d="M35 108l44 39q77 -100 188 -100q56 0 100 36.5t44 94.5q0 44 -26.5 77t-59.5 48.5t-85.5 38.5t-80.5 40q-95 58 -95 144q0 72 46.5 122t119.5 60v107h57v-106q84 -8 155 -69l-38 -44q-65 57 -139 57q-60 0 -100.5 -34t-40.5 -90q0 -37 25 -65t56.5 -42t81 -35.5 t78.5 -39.5q106 -66 106 -169q0 -77 -52 -128.5t-132 -58.5v-106h-57v107q-118 14 -195 116z"/>
<glyph glyph-name="percent" horiz-adv-x="890" unicode="%" d="M267 0h-52l408 700h52zM482 169q0 75 50 127t124 52t124 -52t50 -127t-50 -127t-124 -52t-124 52t-50 127zM777 169q0 54 -35 91.5t-87 37.5q-51 0 -85.5 -37.5t-34.5 -91.5t34.5 -91.5t85.5 -37.5q52 0 87 37.5t35 91.5zM60 531q0 75 50 127t124 52t124 -52t50 -127 t-50 -127t-124 -52t-124 52t-50 127zM355 531q0 54 -35 91.5t-87 37.5q-51 0 -85.5 -37.5t-34.5 -91.5t34.5 -91.5t85.5 -37.5q52 0 87 37.5t35 91.5z"/>
<glyph glyph-name="ampersand" horiz-adv-x="636" unicode="&amp;" d="M309 568q0 39 -25.5 63.5t-63.5 24.5t-63.5 -24.5t-25.5 -63.5q0 -55 64 -117l11 -11q49 32 76 61.5t27 66.5zM77 201q0 -64 55 -110.5t138 -46.5q119 0 183 83l-254 244q-61 -39 -91.5 -79.5t-30.5 -90.5zM525 134l141 -134h-79l-93 89q-84 -99 -224 -99 q-104 0 -177 60.5t-73 150.5q0 123 137 209q-83 81 -83 158q0 59 40.5 100.5t105.5 41.5t105.5 -41.5t40.5 -100.5q0 -91 -120 -166l237 -227q26 57 26 118q0 49 -15 118l56 13q16 -64 16 -131q0 -86 -41 -159z"/>
<glyph glyph-name="quotesingle" horiz-adv-x="217" unicode="&apos;" d="M90 446l-10 254h57l-10 -254h-37z"/>
<glyph glyph-name="parenleft" horiz-adv-x="425" unicode="(" d="M217 250q0 -237 138 -427l-46 -33q-149 204 -149 460t149 460l46 -33q-138 -190 -138 -427z"/>
<glyph glyph-name="parenright" horiz-adv-x="425" unicode=")" d="M208 250q0 237 -138 427l46 33q149 -204 149 -460t-149 -460l-46 33q138 190 138 427z"/>
<glyph glyph-name="asterisk" horiz-adv-x="494" unicode="*" d="M453 532l-168 -53l103 -142l-40 -29l-102 141l-103 -141l-40 29l102 140l-165 55l15 47l166 -54v175h50v-175l166 54z"/>
<glyph glyph-name="plus" horiz-adv-x="530" unicode="+" d="M475 229h-183v-183h-54v183h-183v54h183v183h54v-183h183v-54z"/>
<glyph glyph-name="comma" horiz-adv-x="304" unicode="," d="M56 -140l71 240h75l-96 -240h-50z"/>
<glyph glyph-name="hyphen" horiz-adv-x="420" unicode="-" d="M80 274h260v-49h-260v49z"/>
<glyph glyph-name="period" horiz-adv-x="304" unicode="." d="M110 42q0 22 15 37t37 15t37 -15t15 -37t-15 -37t-37 -15t-37 15t-15 37z"/>
<glyph glyph-name="slash" horiz-adv-x="395" unicode="/" d="M63 0h-58l327 700h58z"/>
<glyph glyph-name="zero" horiz-adv-x="590" unicode="0" d="M60 350q0 108 22 186t76 126t137 48t137 -48t76 -126t22 -186t-22 -186t-76 -126t-137 -48t-137 48t-76 126t-22 186zM120 350q0 -303 175 -303t175 303t-175 303t-175 -303z"/>
<glyph glyph-name="one" horiz-adv-x="375" unicode="1" d="M55 546v60l155 94h40v-700h-60v621z"/>
<glyph glyph-name="two" d="M99 531l-54 19q16 69 68.5 114.5t126.5 45.5q87 0 143.5 -56t56.5 -141t-82 -184l-225 -272h317v-57h-410v37l268 322q72 86 72 152q0 62 -39 102t-99 40q-55 0 -92.5 -33t-50.5 -89z" unicode="2"/>
<glyph glyph-name="three" horiz-adv-x="548" unicode="3" d="M40 100l48 31q53 -84 162 -84q77 0 125 52t48 126q0 76 -53 127t-133 51q-41 0 -71 -10v37l185 213h-278v57h370v-37l-178 -206q94 -7 156 -73t62 -159q0 -97 -66 -166t-167 -69q-69 0 -123.5 29t-86.5 81z"/>
<glyph glyph-name="four" horiz-adv-x="570" unicode="4" d="M104 237h266v343zM370 0v180h-355v37l375 483h40v-463h115v-57h-115v-180h-60z"/>
<glyph glyph-name="five" horiz-adv-x="545" unicode="5" d="M126 700h330v-57h-280l-29 -206q48 23 98 23q99 0 167 -68.5t68 -166.5q0 -97 -67.5 -166t-165.5 -69q-61 0 -113 28t-84 75l47 32q25 -36 64 -57t85 -21q75 0 124.5 52.5t49.5 125.5q0 74 -51.5 126t-126.5 52q-70 0 -124 -49l-40 6z"/>
<glyph glyph-name="six" horiz-adv-x="575" unicode="6" d="M287 395q-74 0 -129 -50q-43 -70 -43 -124q0 -73 49.5 -123.5t124.5 -50.5q73 0 122 50t49 124q0 75 -49 124.5t-124 49.5zM387 700l-168 -259q33 11 72 11q99 0 164 -67t65 -164q0 -98 -66.5 -164.5t-166.5 -66.5q-99 1 -165.5 67t-66.5 160q0 75 49 151l215 332h68z "/>
<glyph glyph-name="seven" d="M50 643v57h430v-37l-317 -663h-63l308 643h-358z" unicode="7"/>
<glyph glyph-name="eight" horiz-adv-x="570" unicode="8" d="M285 47q74 0 122 45t48 111t-48 111t-122 45t-122 -45t-48 -111t48 -111t122 -45zM285 653q-54 0 -89.5 -34.5t-35.5 -84.5q0 -49 35 -83t90 -35q55 1 90 35t35 83q0 50 -35.5 84.5t-89.5 34.5zM285 -10q-99 0 -164.5 60.5t-65.5 152.5q0 61 32.5 112t88.5 78 q-76 50 -76 141q0 74 53 125t132 51t132 -51t53 -125q0 -91 -76 -141q56 -27 88.5 -78t32.5 -112q0 -92 -65.5 -152.5t-164.5 -60.5z"/>
<glyph glyph-name="nine" horiz-adv-x="575" unicode="9" d="M288 305q74 0 129 50q43 70 43 124q0 73 -49.5 123.5t-124.5 50.5q-73 0 -122 -50t-49 -124q0 -75 49 -124.5t124 -49.5zM188 0l168 259q-33 -11 -72 -11q-99 0 -164 67t-65 164q0 98 66.5 164.5t166.5 66.5q99 -1 165.5 -67t66.5 -160q0 -75 -49 -151l-215 -332h-68z "/>
<glyph glyph-name="colon" horiz-adv-x="304" unicode=":" d="M110 414q0 22 15 37t37 15t37 -15t15 -37t-15 -37t-37 -15t-37 15t-15 37zM110 42q0 22 15 37t37 15t37 -15t15 -37t-15 -37t-37 -15t-37 15t-15 37z"/>
<glyph glyph-name="semicolon" horiz-adv-x="304" unicode=";" d="M110 414q0 22 15 37t37 15t37 -15t15 -37t-15 -37t-37 -15t-37 15t-15 37zM56 -140l71 240h75l-96 -240h-50z"/>
<glyph glyph-name="less" horiz-adv-x="530" unicode="&lt;" d="M475 123v-58l-420 174v34l420 174v-58l-323 -133z"/>
<glyph glyph-name="equal" horiz-adv-x="530" unicode="=" d="M475 141h-420v54h420v-54zM475 317h-420v54h420v-54z"/>
<glyph glyph-name="greater" horiz-adv-x="530" unicode="&gt;" d="M55 65v58l323 133l-323 133v58l420 -174v-34z"/>
<glyph glyph-name="question" horiz-adv-x="500" unicode="?" d="M208 42q0 22 15 37t37 15t37 -15t15 -37t-15 -37t-37 -15t-37 15t-15 37zM124 559l-54 16q15 59 69 97t126 38q85 0 142.5 -52.5t57.5 -127.5q0 -95 -98 -166q-13 -10 -46 -30.5t-45.5 -33t-12.5 -27.5q0 -21 34 -53l-42 -40q-27 27 -38 47t-11 46q0 24 13.5 44.5t29 32 t45 30.5t43.5 29q71 54 71 121q0 53 -40.5 89.5t-102.5 36.5q-53 0 -92 -27t-49 -70z"/>
<glyph glyph-name="at" horiz-adv-x="1000" unicode="@" d="M636 104q-50 -69 -145 -69q-78 0 -137 47q-77 61 -77 168t77 168q59 47 137 47q84 0 133 -58v48h57v-274q0 -92 78 -92q56 0 85 51t29 133q0 165 -107 264t-266 99q-154 0 -263.5 -113t-109.5 -273q0 -161 112 -273.5t269 -112.5q121 0 221 77l31 -47q-109 -84 -253 -84 q-181 0 -309 129t-128 311t128 311t309 129q179 0 301 -116t122 -301q0 -102 -45.5 -170t-126.5 -68q-90 0 -122 69zM624 172v156q-17 35 -52 59t-81 24q-65 0 -111 -46t-46 -115q0 -68 45.5 -114.5t111.5 -46.5q47 0 81.5 23.5t51.5 59.5z"/>
<glyph glyph-name="A" horiz-adv-x="654" unicode="A" d="M327 606l-146 -338h291zM307 700h40l302 -700h-60l-92 211h-340l-92 -211h-60z"/>
<glyph glyph-name="B" horiz-adv-x="605" unicode="B" d="M150 415h166q69 0 104 37q30 32 30 77t-30 77q-35 37 -104 37h-166v-228zM339 358h-189v-301h189q81 0 125 42q46 44 46 108t-46 108q-45 43 -125 43zM510 529q0 -81 -63 -132q55 -25 89 -76.5t34 -113.5q0 -92 -69 -154q-59 -53 -159 -53h-252v700h229q87 0 137 -47 q54 -51 54 -124z"/>
<glyph glyph-name="C" horiz-adv-x="685" unicode="C" d="M622 157l43 -38q-46 -59 -118 -94t-152 -35q-156 0 -258 102t-102 258q0 152 100 256t251 104q75 0 141.5 -28.5t112.5 -78.5l-41 -41q-83 91 -213 91q-125 0 -208 -88t-83 -215q0 -129 84 -216t213 -87q70 0 131 30t99 80z"/>
<glyph glyph-name="D" horiz-adv-x="705" unicode="D" d="M670 350q0 -86 -37 -161t-102 -123q-90 -66 -241 -66h-200v700h200q151 0 241 -66q65 -48 102 -123t37 -161zM610 350q0 70 -29 131.5t-81 102.5q-76 59 -213 59h-137v-586h137q137 0 213 59q52 41 81 102.5t29 131.5z"/>
<glyph glyph-name="E" d="M470 643h-320v-228h250v-57h-250v-301h330v-57h-390v700h380v-57z" unicode="E"/>
<glyph glyph-name="F" horiz-adv-x="490" unicode="F" d="M470 643h-320v-228h250v-57h-250v-358h-60v700h380v-57z"/>
<glyph glyph-name="G" horiz-adv-x="730" unicode="G" d="M605 135v223h-230v57h290v-295q-46 -59 -118 -94.5t-152 -35.5q-156 0 -258 102t-102 258q0 152 100 256t251 104q75 0 141.5 -28.5t112.5 -78.5l-41 -41q-83 91 -213 91q-125 0 -208 -88t-83 -215q0 -129 84 -216t213 -87q128 0 213 88z"/>
<glyph glyph-name="H" horiz-adv-x="750" unicode="H" d="M600 0v358h-450v-358h-60v700h60v-285h450v285h60v-700h-60z"/>
<glyph glyph-name="I" horiz-adv-x="240" unicode="I" d="M90 0v700h60v-700h-60z"/>
<glyph glyph-name="J" horiz-adv-x="435" unicode="J" d="M0 102l54 22q14 -34 46 -55.5t70 -21.5q72 0 108 60q17 29 17 85v508h60v-505q0 -79 -31 -124q-25 -38 -65.5 -59.5t-88.5 -21.5q-56 0 -102.5 31t-67.5 81z"/>
<glyph glyph-name="K" horiz-adv-x="610" unicode="K" d="M590 0h-80l-360 354v-354h-60v700h60v-314l330 314h80l-346 -331z"/>
<glyph glyph-name="L" horiz-adv-x="500" unicode="L" d="M150 700v-643h330v-57h-390v700h60z"/>
<glyph glyph-name="M" horiz-adv-x="834" unicode="M" d="M684 554l-247 -414h-40l-247 414v-554h-60v700h40l287 -481l287 481h40v-700h-60v554z"/>
<glyph glyph-name="N" horiz-adv-x="750" unicode="N" d="M90 0v700h40l470 -583v583h60v-700h-40l-470 583v-583h-60z"/>
<glyph glyph-name="O" horiz-adv-x="766" unicode="O" d="M95 350q0 -127 81.5 -215t206.5 -88t206.5 88t81.5 215t-81.5 215t-206.5 88t-206.5 -88t-81.5 -215zM35 350q0 153 100 256.5t248 103.5t248 -103.5t100 -256.5t-100 -256.5t-248 -103.5t-248 103.5t-100 256.5z"/>
<glyph glyph-name="P" horiz-adv-x="580" unicode="P" d="M150 395h196q71 0 108 37q36 36 36 87t-36 87q-37 37 -108 37h-196v-248zM349 338h-199v-338h-60v700h259q87 0 137 -42q64 -54 64 -139t-64 -139q-50 -42 -137 -42z"/>
<glyph glyph-name="Q" horiz-adv-x="771" unicode="Q" d="M391 314l41 36l176 -193q63 82 63 193q0 127 -81.5 215t-206.5 88t-206.5 -88t-81.5 -215t81.5 -215t206.5 -88q108 0 187 69zM35 350q0 153 100 256.5t248 103.5t248 -103.5t100 -256.5q0 -137 -83 -238l103 -112h-76l-66 73q-96 -83 -226 -83q-148 0 -248 103.5 t-100 256.5z"/>
<glyph glyph-name="R" horiz-adv-x="615" unicode="R" d="M150 415h176q65 0 97 30q37 34 37 84t-37 84q-32 30 -97 30h-176v-228zM610 0h-72l-270 358h-118v-358h-60v700h239q86 0 136 -45q55 -50 55 -126t-55 -126q-45 -42 -125 -45z"/>
<glyph glyph-name="S" horiz-adv-x="516" unicode="S" d="M35 108l44 39q77 -100 188 -100q56 0 100 36.5t44 94.5q0 44 -26.5 77t-59.5 48.5t-85.5 38.5t-80.5 40q-95 58 -95 144q0 81 57 132.5t142 51.5q99 0 179 -70l-38 -44q-65 57 -139 57q-60 0 -100.5 -34t-40.5 -90q0 -37 25 -65t56.5 -42t81 -35.5t78.5 -39.5 q106 -66 106 -169q0 -82 -58.5 -135t-145.5 -53q-142 0 -232 118z"/>
<glyph glyph-name="T" horiz-adv-x="500" unicode="T" d="M20 700h460v-57h-200v-643h-60v643h-200v57z"/>
<glyph glyph-name="U" horiz-adv-x="720" unicode="U" d="M360 -10q-75 0 -138.5 34t-100.5 93q-41 65 -41 163v420h60v-423q0 -80 31 -130q30 -46 80 -73t109 -27t109 27t80 73q31 50 31 130v423h60v-420q0 -98 -41 -163q-37 -59 -100.5 -93t-138.5 -34z"/>
<glyph glyph-name="V" horiz-adv-x="630" unicode="V" d="M558 700h62l-285 -700h-40l-285 700h62l243 -600z"/>
<glyph glyph-name="W" horiz-adv-x="942" unicode="W" d="M451 700h40l187 -579l188 579h61l-230 -700h-40l-186 575l-186 -575h-40l-230 700h61l188 -579z"/>
<glyph glyph-name="X" horiz-adv-x="610" unicode="X" d="M88 0h-68l246 384l-202 316h67l174 -271l174 271h67l-202 -316l246 -384h-68l-217 339z"/>
<glyph glyph-name="Y" horiz-adv-x="560" unicode="Y" d="M550 700l-240 -371v-329h-60v329l-240 371h68l202 -313l202 313h68z"/>
<glyph glyph-name="Z" horiz-adv-x="585" unicode="Z" d="M40 37l409 606h-379v57h460v-37l-407 -606h427v-57h-510v37z"/>
<glyph glyph-name="bracketleft" horiz-adv-x="425" unicode="[" d="M160 -200v900h225v-54h-168v-792h168v-54h-225z"/>
<glyph glyph-name="backslash" horiz-adv-x="395" unicode="\" d="M390 0h-58l-327 700h58z"/>
<glyph glyph-name="bracketright" horiz-adv-x="425" unicode="]" d="M265 700v-900h-225v54h168v792h-168v54h225z"/>
<glyph glyph-name="asciicircum" horiz-adv-x="451" unicode="^" d="M30 350l177 350h37l177 -350h-59l-137 266l-136 -266h-59z"/>
<glyph glyph-name="underscore" horiz-adv-x="450" unicode="_" d="M20 0h410v-49h-410v49z"/>
<glyph glyph-name="grave" horiz-adv-x="280" unicode="`" d="M70 670h75l65 -140h-45z"/>
<glyph glyph-name="a" horiz-adv-x="582" unicode="a" d="M440 144v176q-19 33 -63.5 62.5t-100.5 29.5q-62 0 -110 -39q-64 -53 -64 -145q0 -47 19.5 -87t52.5 -63q49 -34 103 -34q50 0 93 26.5t70 73.5zM497 0h-55v67q-57 -77 -164 -77q-76 0 -136 43q-45 32 -71 83t-26 112q0 115 85 187q63 51 145 51q102 0 167 -73v63h55 v-456z"/>
<glyph glyph-name="b" horiz-adv-x="582" unicode="b" d="M304 -10q-107 0 -164 77v-67h-55v710h57v-315q66 71 165 71q82 0 145 -51q85 -72 85 -187q0 -61 -26 -112t-71 -83q-60 -43 -136 -43zM142 320v-176q27 -47 70 -73.5t93 -26.5q54 0 103 34q33 23 52.5 63t19.5 87q0 92 -64 145q-48 39 -110 39q-56 0 -100.5 -29.5 t-63.5 -62.5z"/>
<glyph glyph-name="c" horiz-adv-x="505" unicode="c" d="M434 107l41 -38q-71 -79 -180 -79q-99 0 -172 66t-73 172q0 98 67.5 168t168.5 70q103 0 174 -71l-36 -41q-60 58 -138 58q-73 0 -126 -53.5t-53 -130.5t53.5 -130.5t133.5 -53.5t140 63z"/>
<glyph glyph-name="d" horiz-adv-x="582" unicode="d" d="M278 -10q-76 0 -136 43q-45 32 -71 83t-26 112q0 115 85 187q63 51 145 51q99 0 165 -71v315h57v-710h-55v67q-57 -77 -164 -77zM440 144v176q-19 33 -63.5 62.5t-100.5 29.5q-62 0 -110 -39q-64 -53 -64 -145q0 -47 19.5 -87t52.5 -63q49 -34 103 -34q50 0 93 26.5 t70 73.5z"/>
<glyph glyph-name="e" d="M420 112l40 -38q-28 -36 -76.5 -60t-109.5 -24q-98 0 -163.5 66.5t-65.5 171.5q0 100 61.5 169t156.5 69q91 0 151.5 -64t60.5 -159q0 -11 -1 -20h-372q3 -76 49.5 -127.5t122.5 -51.5q90 0 146 68zM263 412q-60 0 -102.5 -38t-55.5 -99h311q-9 60 -51.5 98.5 t-101.5 38.5z" unicode="e"/>
<glyph glyph-name="f" horiz-adv-x="360" unicode="f" d="M340 715l-11 -53q-15 4 -34 4q-59 0 -89 -43q-21 -31 -21 -95v-72h155v-54h-155v-402h-57v402h-118v54h118v69q0 93 38 139q47 56 130 56q21 0 44 -5z"/>
<glyph glyph-name="g" horiz-adv-x="582" unicode="g" d="M440 144v176q-19 33 -63.5 62.5t-100.5 29.5q-62 0 -110 -39q-64 -53 -64 -145q0 -47 19.5 -87t52.5 -63q49 -34 103 -34q50 0 93 26.5t70 73.5zM497 2q0 -100 -25 -147q-56 -105 -198 -105q-134 0 -207 109l45 33q55 -88 163 -88q107 0 147 78q18 36 18 118v65 q-58 -75 -162 -75q-76 0 -136 43q-45 32 -71 83t-26 112q0 115 85 187q63 51 145 51q102 0 167 -73v63h55v-454z"/>
<glyph glyph-name="h" horiz-adv-x="577" unicode="h" d="M142 710v-315q53 71 159 71q105 0 162 -77q39 -51 39 -146v-243h-57v239q0 75 -26 112q-42 61 -119 61q-49 0 -90.5 -25t-67.5 -70v-317h-57v710h57z"/>
<glyph glyph-name="i" horiz-adv-x="227" unicode="i" d="M63 614q0 21 14.5 36t35.5 15t36 -15t15 -36t-15 -35.5t-36 -14.5t-35.5 14.5t-14.5 35.5zM85 0v456h57v-456h-57z"/>
<glyph glyph-name="j" horiz-adv-x="270" unicode="j" d="M106 614q0 21 14.5 36t35.5 15t36 -15t15 -36t-15 -35.5t-36 -14.5t-35.5 14.5t-14.5 35.5zM-10 -247l5 53q10 -2 25 -2q60 0 89 43q19 28 19 95v514h57v-514q0 -94 -36 -137q-46 -55 -126 -55q-21 0 -33 3z"/>
<glyph glyph-name="k" horiz-adv-x="496" unicode="k" d="M481 0h-80l-259 241v-241h-57v710h57v-444l233 190h85l-250 -205z"/>
<glyph glyph-name="l" horiz-adv-x="227" unicode="l" d="M85 0v710h57v-710h-57z"/>
<glyph glyph-name="m" horiz-adv-x="917" unicode="m" d="M140 456v-62q25 33 66 52.5t88 19.5q56 0 101.5 -26t69.5 -71q67 97 179 97q55 0 100.5 -26t70.5 -70q27 -49 27 -129v-241h-57v234q0 79 -26 118q-40 60 -115 60q-51 0 -92.5 -30.5t-64.5 -75.5q5 -30 5 -65v-241h-57v234q0 79 -26 118q-40 60 -115 60q-46 0 -87.5 -26 t-64.5 -69v-317h-57v456h55z"/>
<glyph glyph-name="n" horiz-adv-x="577" unicode="n" d="M140 456v-64q56 74 161 74t162 -77q39 -51 39 -146v-243h-57v239q0 75 -26 112q-42 61 -119 61q-49 0 -90.5 -25t-67.5 -70v-317h-57v456h55z"/>
<glyph glyph-name="o" horiz-adv-x="560" unicode="o" d="M515 228q0 -99 -67 -168.5t-168 -69.5t-168 69.5t-67 168.5t67 168.5t168 69.5t168 -69.5t67 -168.5zM458 228q0 77 -50.5 130.5t-127.5 53.5t-127.5 -53.5t-50.5 -130.5t50.5 -130.5t127.5 -53.5t127.5 53.5t50.5 130.5z"/>
<glyph glyph-name="p" horiz-adv-x="582" unicode="p" d="M142 320v-176q27 -47 70 -73.5t93 -26.5q54 0 103 34q33 23 52.5 63t19.5 87q0 92 -64 145q-48 39 -110 39q-56 0 -100.5 -29.5t-63.5 -62.5zM142 -240h-57v696h55v-63q65 73 167 73q82 0 145 -51q85 -72 85 -187q0 -61 -26 -112t-71 -83q-60 -43 -136 -43 q-104 0 -162 75v-305z"/>
<glyph glyph-name="q" horiz-adv-x="582" unicode="q" d="M440 144v176q-19 33 -63.5 62.5t-100.5 29.5q-62 0 -110 -39q-64 -53 -64 -145q0 -47 19.5 -87t52.5 -63q49 -34 103 -34q50 0 93 26.5t70 73.5zM497 -240h-57v305q-58 -75 -162 -75q-76 0 -136 43q-45 32 -71 83t-26 112q0 115 85 187q63 51 145 51q102 0 167 -73v63h55 v-696z"/>
<glyph glyph-name="r" horiz-adv-x="350" unicode="r" d="M320 464l-8 -53q-6 1 -27 1q-46 0 -85.5 -28t-57.5 -73v-311h-57v456h57v-60q18 28 56.5 49t87.5 21q22 0 34 -2z"/>
<glyph glyph-name="s" horiz-adv-x="425" unicode="s" d="M40 55l35 44q65 -55 138 -55q44 0 74.5 22.5t30.5 57.5q0 32 -27 51t-66 29t-77.5 21.5t-65.5 38t-27 69.5q0 59 47 96t108 37q82 0 147 -44l-30 -47q-58 37 -114 37q-40 0 -70.5 -20.5t-30.5 -57.5q0 -27 27 -44t66 -27t77.5 -22.5t65.5 -41t27 -72.5q0 -62 -45.5 -99.5 t-112.5 -37.5q-107 0 -177 65z"/>
<glyph glyph-name="t" horiz-adv-x="400" unicode="t" d="M345 456v-54h-155v-250q0 -51 20 -76q26 -32 76 -32q29 0 49 6l10 -52q-24 -8 -59 -8q-81 0 -122 52q-31 39 -31 112v248h-128v54h128v124h57v-124h155z"/>
<glyph glyph-name="u" horiz-adv-x="567" unicode="u" d="M427 0v62q-25 -32 -66.5 -52t-87.5 -20q-56 0 -101 25t-70 69q-27 49 -27 129v243h57v-234q0 -79 26 -118q40 -60 115 -60q46 0 87.5 26t64.5 69v317h57v-456h-55z"/>
<glyph glyph-name="v" horiz-adv-x="490" unicode="v" d="M264 0h-37l-212 456h62l168 -364l168 364h62z"/>
<glyph glyph-name="w" horiz-adv-x="762" unicode="w" d="M381 363l-148 -363h-37l-176 456h59l138 -358l146 358h36l146 -358l138 358h59l-176 -456h-37z"/>
<glyph glyph-name="x" horiz-adv-x="462" unicode="x" d="M380 0l-149 207l-149 -207h-67l176 245l-151 211h67l124 -173l124 173h67l-151 -211l176 -245h-67z"/>
<glyph glyph-name="y" horiz-adv-x="487" unicode="y" d="M156 -240h-60l125 277l-206 419h64l171 -354l161 354h61z"/>
<glyph glyph-name="z" horiz-adv-x="470" unicode="z" d="M40 34l304 368h-279v54h365v-34l-305 -368h315v-54h-400v34z"/>
<glyph glyph-name="braceleft" horiz-adv-x="425" unicode="{" d="M174 250q44 -18 44 -88q0 -39 -5.5 -107t-5.5 -99q0 -58 21.5 -80t80.5 -22h26v-54h-30q-84 0 -119.5 37t-35.5 113q0 39 5 110.5t5 105.5q0 36 -17.5 51.5t-52.5 15.5v34q35 0 52.5 15.5t17.5 51.5q0 34 -5 105.5t-5 110.5q0 76 35.5 113t119.5 37h30v-54h-26 q-59 0 -80.5 -22t-21.5 -80q0 -31 5.5 -99t5.5 -107q0 -70 -44 -88z"/>
<glyph glyph-name="bar" horiz-adv-x="177" unicode="|" d="M60 -200v900h57v-900h-57z"/>
<glyph glyph-name="braceright" horiz-adv-x="425" unicode="}" d="M251 250q-44 18 -44 88q0 39 5.5 107t5.5 99q0 58 -21.5 80t-80.5 22h-26v54h30q84 0 119.5 -37t35.5 -113q0 -39 -5 -110.5t-5 -105.5q0 -36 17.5 -51.5t52.5 -15.5v-34q-35 0 -52.5 -15.5t-17.5 -51.5q0 -34 5 -105.5t5 -110.5q0 -76 -35.5 -113t-119.5 -37h-30v54h26 q59 0 80.5 22t21.5 80q0 31 -5.5 99t-5.5 107q0 70 44 88z"/>
<glyph glyph-name="asciitilde" d="M87 196l-47 23q31 108 122 108q35 0 71 -22t67.5 -44t55.5 -22q51 0 77 77l47 -23q-31 -108 -122 -108q-35 0 -71 22t-67.5 44t-55.5 22q-51 0 -77 -77z" unicode="~"/>
<glyph glyph-name="exclamdown" horiz-adv-x="240" unicode="¡" d="M68 414q0 22 15 37t37 15t37 -15t15 -37t-15 -37t-37 -15t-37 15t-15 37zM92 4l10 246h37l10 -246v-244h-57v244z"/>
<glyph glyph-name="cent" horiz-adv-x="500" unicode="¢" d="M429 107l41 -38q-63 -70 -160 -78v-106h-57v108q-88 13 -148 76.5t-60 158.5q0 90 58.5 158t149.5 78v117h57v-117q82 -8 145 -69l-36 -41q-60 58 -138 58q-73 0 -126 -53.5t-53 -130.5t53.5 -130.5t133.5 -53.5t140 63z"/>
<glyph glyph-name="sterling" horiz-adv-x="515" unicode="£" d="M55 337v54h84q-38 88 -38 135q0 81 52.5 132t130.5 52q58 0 100.5 -28t65.5 -67l-46 -32q-42 73 -120 73q-47 0 -86.5 -33.5t-39.5 -96.5q0 -10 2 -22t4 -20.5t8 -23t8.5 -21t10.5 -25t10 -23.5h128v-54h-108q17 -51 17 -95q0 -108 -74 -188h321v-54h-450v34 q64 24 105 80t41 129q0 39 -20 94h-106z"/>
<glyph glyph-name="currency" horiz-adv-x="540" unicode="¤" d="M131 351q0 -58 40.5 -98.5t98.5 -40.5t98.5 40.5t40.5 98.5t-40.5 98.5t-98.5 40.5t-98.5 -40.5t-40.5 -98.5zM74 351q0 64 41 118l-75 75l37 37l75 -75q54 41 118 41q65 0 119 -41l74 75l37 -37l-74 -75q40 -53 40 -118q0 -66 -40 -119l74 -74l-37 -37l-74 74 q-53 -40 -119 -40q-65 0 -118 40l-75 -74l-37 37l75 74q-41 54 -41 119z"/>
<glyph glyph-name="yen" horiz-adv-x="560" unicode="¥" d="M550 700l-159 -245h109v-54h-144l-46 -72v-29h190v-54h-190v-246h-60v246h-190v54h190v29l-47 72h-143v54h108l-158 245h68l202 -313l202 313h68z"/>
<glyph glyph-name="brokenbar" horiz-adv-x="217" unicode="¦" d="M80 310v390h57v-390h-57zM80 -200v390h57v-390h-57z"/>
<glyph glyph-name="section" horiz-adv-x="580" unicode="§" d="M319 340q-97 32 -125 46q-75 -43 -75 -113q0 -50 37.5 -79.5t104.5 -53.5q95 -32 124 -47q76 43 76 114q0 50 -38 80.5t-104 52.5zM520 207q0 -93 -81 -150q44 -41 44 -109q0 -78 -58 -128t-141 -50q-99 0 -179 70l37 43q64 -56 140 -56q59 0 100 33.5t41 87.5 q0 28 -12 49t-37 36.5t-47 24t-59 20.5q-37 11 -60.5 20t-54.5 26t-49 36t-31 48t-13 65q0 92 81 149q-44 42 -44 110q0 78 58 128t141 50q99 0 179 -70l-37 -43q-64 56 -140 56q-59 0 -100 -33.5t-41 -87.5q0 -28 12 -49t37 -36.5t47 -24t59 -20.5q37 -11 60.5 -20 t54.5 -26t49 -36t31 -48t13 -65z"/>
<glyph glyph-name="dieresis" horiz-adv-x="404" unicode="¨" d="M70 594q0 21 14.5 36t35.5 15t36 -15t15 -36t-15 -35.5t-36 -14.5t-35.5 14.5t-14.5 35.5zM233 594q0 21 14.5 36t35.5 15t36 -15t15 -36t-15 -35.5t-36 -14.5t-35.5 14.5t-14.5 35.5z"/>
<glyph glyph-name="copyright" horiz-adv-x="840" unicode="©" d="M117 350q0 -124 89.5 -213.5t213.5 -89.5t213.5 89.5t89.5 213.5t-89.5 213.5t-213.5 89.5t-213.5 -89.5t-89.5 -213.5zM70 350q0 145 102.5 247.5t247.5 102.5t247.5 -102.5t102.5 -247.5t-102.5 -247.5t-247.5 -102.5t-247.5 102.5t-102.5 247.5zM552 500l-27 -35 q-45 41 -101 41q-62 0 -102.5 -42.5t-40.5 -111.5q0 -67 40.5 -110t105.5 -43q61 0 110 42l27 -35q-56 -51 -137 -51q-84 0 -138.5 56.5t-54.5 140.5t54.5 141t135.5 57q75 0 128 -50z"/>
<glyph glyph-name="ordfeminine" horiz-adv-x="406" unicode="ª" d="M206 400q-68 0 -112 44.5t-44 110.5t44 110.5t112 44.5q59 0 91 -39v29h49v-290h-49v29q-32 -39 -91 -39zM297 489v132q-38 43 -90 43q-48 0 -78 -31t-30 -78t30 -78t78 -31q52 0 90 43z"/>
<glyph glyph-name="guillemotleft" horiz-adv-x="535" unicode="«" d="M224 420h71l-158 -185l158 -185h-71l-144 168v34zM424 420h71l-158 -185l158 -185h-71l-144 168v34z"/>
<glyph glyph-name="logicalnot" horiz-adv-x="530" unicode="¬" d="M421 141v176h-366v54h420v-230h-54z"/>
<glyph glyph-name="registered" horiz-adv-x="840" unicode="®" d="M342 392h82q45 0 61 19q13 15 13 35t-13 35q-16 19 -61 19h-82v-108zM574 161h-53l-129 188h-50v-188h-47v383h132q60 0 89 -29t29 -69q0 -41 -29 -70q-23 -23 -69 -27zM117 350q0 -124 89.5 -213.5t213.5 -89.5t213.5 89.5t89.5 213.5t-89.5 213.5t-213.5 89.5 t-213.5 -89.5t-89.5 -213.5zM70 350q0 145 102.5 247.5t247.5 102.5t247.5 -102.5t102.5 -247.5t-102.5 -247.5t-247.5 -102.5t-247.5 102.5t-102.5 247.5z"/>
<glyph glyph-name="macron" horiz-adv-x="420" unicode="¯" d="M70 626h280v-50h-280v50z"/>
<glyph glyph-name="degree" horiz-adv-x="390" unicode="°" d="M91 555q0 -43 30 -73t73 -30t73.5 30t30.5 73t-30.5 73.5t-73.5 30.5t-73 -30.5t-30 -73.5zM40 555q0 65 45 110t110 45t110 -45t45 -110t-45 -110t-110 -45t-110 45t-45 110z"/>
<glyph glyph-name="plusminus" horiz-adv-x="530" unicode="±" d="M475 26h-420v54h420v-54zM475 271h-183v-161h-54v161h-183v54h183v161h54v-161h183v-54z"/>
<glyph glyph-name="twosuperior" horiz-adv-x="278" unicode="²" d="M70 613l-41 17q26 80 107 80q45 0 76.5 -31t31.5 -75q0 -49 -53 -112l-88 -108h145v-44h-223v24l125 152q19 22 26.5 32t14 25.5t6.5 30.5q0 25 -17.5 43.5t-43.5 18.5q-46 0 -66 -53z"/>
<glyph glyph-name="threesuperior" horiz-adv-x="282" unicode="³" d="M233 676l-79 -100q36 -9 61 -34q37 -37 37 -88t-36 -87.5t-91 -36.5q-36 0 -67 17t-48 44l38 27q11 -20 32.5 -32t44.5 -12q34 0 57 23t23 57q0 37 -25 59.5t-61 22.5q-24 0 -40 -7v24l80 103h-132v44h206v-24z"/>
<glyph glyph-name="acute" horiz-adv-x="280" unicode="´" d="M135 670h75l-95 -140h-45z"/>
<glyph glyph-name="mu" horiz-adv-x="577" unicode="µ" d="M283 -10q-91 0 -141 65v-295h-57v696h57v-234q0 -79 26 -118q40 -60 115 -60q46 0 87.5 26t64.5 69v317h57v-456h-55v62q-25 -32 -66.5 -52t-87.5 -20z"/>
<glyph glyph-name="paragraph" horiz-adv-x="655" unicode="¶" d="M87 485q0 -67 46 -114t112 -47v322q-66 0 -112 -47t-46 -114zM265 700h340v-54h-100v-846h-57v846h-146v-846h-57v470q-89 0 -152 63t-63 152q0 70 40.5 125.5t104.5 77.5q33 12 90 12z"/>
<glyph glyph-name="periodcentered" horiz-adv-x="304" unicode="·" d="M100 228q0 22 15 37t37 15t37 -15t15 -37t-15 -37t-37 -15t-37 15t-15 37z"/>
<glyph glyph-name="cedilla" horiz-adv-x="240" unicode="¸" d="M70 -140l55 150h45l-25 -150h-75z"/>
<glyph glyph-name="onesuperior" horiz-adv-x="205" unicode="¹" d="M103 639l-73 -37v48l93 50h27v-360h-47v299z"/>
<glyph glyph-name="ordmasculine" horiz-adv-x="406" unicode="º" d="M99 555q0 -45 30 -77t74 -32t74 32t30 77t-30 77t-74 32q-45 0 -74.5 -32t-29.5 -77zM50 555q0 65 43.5 110t109.5 45t109.5 -45t43.5 -110t-43.5 -110t-109.5 -45t-109.5 45t-43.5 110z"/>
<glyph glyph-name="guillemotright" horiz-adv-x="535" unicode="»" d="M240 420h71l144 -168v-34l-144 -168h-71l158 185zM40 420h71l144 -168v-34l-144 -168h-71l158 185z"/>
<glyph glyph-name="onequarter" horiz-adv-x="555" unicode="¼" d="M103 639l-73 -37v48l93 50h27v-360h-47v299zM92 0h-52l408 700h52zM337 129h101v131zM265 85v24l193 251h27v-231h60v-44h-60v-85h-47v85h-173z"/>
<glyph glyph-name="onehalf" horiz-adv-x="593" unicode="½" d="M385 273l-41 17q26 80 107 80q45 0 76.5 -31t31.5 -75q0 -49 -53 -112l-88 -108h145v-44h-223v24l125 152q19 22 26.5 32t14 25.5t6.5 30.5q0 25 -17.5 43.5t-43.5 18.5q-46 0 -66 -53zM103 639l-73 -37v48l93 50h27v-360h-47v299zM92 0h-52l408 700h52z"/>
<glyph glyph-name="threequarters" horiz-adv-x="603" unicode="¾" d="M233 676l-79 -100q36 -9 61 -34q37 -37 37 -88t-36 -87.5t-91 -36.5q-36 0 -67 17t-48 44l38 27q11 -20 32.5 -32t44.5 -12q34 0 57 23t23 57q0 37 -25 59.5t-61 22.5q-24 0 -40 -7v24l80 103h-132v44h206v-24zM140 0h-52l408 700h52zM385 129h101v131zM313 85v24 l193 251h27v-231h60v-44h-60v-85h-47v85h-173z"/>
<glyph glyph-name="questiondown" horiz-adv-x="500" unicode="¿" d="M292 414q0 -22 -15 -37t-37 -15t-37 15t-15 37t15 37t37 15t37 -15t15 -37zM376 -99l54 -16q-15 -59 -69 -97t-126 -38q-85 0 -142.5 52.5t-57.5 127.5q0 95 98 166q13 10 46 30.5t45.5 33t12.5 27.5q0 21 -34 53l42 40q27 -27 38 -47t11 -46q0 -24 -13.5 -44.5t-29 -32 t-45 -30.5t-43.5 -29q-71 -54 -71 -121q0 -53 40.5 -89.5t102.5 -36.5q53 0 92 27t49 70z"/>
<glyph glyph-name="Agrave" horiz-adv-x="654" unicode="À" d="M327 606l-146 -338h291zM307 700h40l302 -700h-60l-92 211h-340l-92 -211h-60zM207 880h75l65 -140h-45z"/>
<glyph glyph-name="Aacute" horiz-adv-x="654" unicode="Á" d="M327 606l-146 -338h291zM307 700h40l302 -700h-60l-92 211h-340l-92 -211h-60zM372 880h75l-95 -140h-45z"/>
<glyph glyph-name="Acircumflex" horiz-adv-x="654" unicode="Â" d="M327 606l-146 -338h291zM307 700h40l302 -700h-60l-92 211h-340l-92 -211h-60zM327 834l-85 -94h-45l95 140h70l95 -140h-45z"/>
<glyph glyph-name="Atilde" horiz-adv-x="654" unicode="Ã" d="M327 606l-146 -338h291zM307 700h40l302 -700h-60l-92 211h-340l-92 -211h-60zM227 766l-40 11q1 33 20.5 58t53.5 25q27 0 67 -22.5t57 -22.5q33 0 36 45l40 -11q-1 -33 -20.5 -58t-53.5 -25q-27 0 -67 22.5t-57 22.5q-33 0 -36 -45z"/>
<glyph glyph-name="Adieresis" horiz-adv-x="654" unicode="Ä" d="M327 606l-146 -338h291zM307 700h40l302 -700h-60l-92 211h-340l-92 -211h-60zM195 804q0 21 14.5 36t35.5 15t36 -15t15 -36t-15 -35.5t-36 -14.5t-35.5 14.5t-14.5 35.5zM358 804q0 21 14.5 36t35.5 15t36 -15t15 -36t-15 -35.5t-36 -14.5t-35.5 14.5t-14.5 35.5z"/>
<glyph glyph-name="Aring" horiz-adv-x="654" unicode="Å" d="M327 606l-146 -338h291zM307 700h40l302 -700h-60l-92 211h-340l-92 -211h-60zM277 820q0 -21 14.5 -35.5t35.5 -14.5t35.5 14.5t14.5 35.5t-14.5 35.5t-35.5 14.5t-35.5 -14.5t-14.5 -35.5zM237 820q0 38 26.5 64t63.5 26t63.5 -26t26.5 -64t-26.5 -64t-63.5 -26 t-63.5 26t-26.5 64z"/>
<glyph glyph-name="AE" horiz-adv-x="870" unicode="Æ" d="M207 268h233v392zM820 643h-320v-228h250v-57h-250v-301h330v-57h-390v211h-267l-127 -211h-66l418 700h422v-57z"/>
<glyph glyph-name="Ccedilla" horiz-adv-x="685" unicode="Ç" d="M305 -140l48 132q-141 14 -229.5 114t-88.5 244q0 152 100 256t251 104q75 0 141.5 -28.5t112.5 -78.5l-41 -41q-83 91 -213 91q-125 0 -208 -88t-83 -215q0 -129 84 -216t213 -87q70 0 131 30t99 80l43 -38q-45 -58 -115.5 -93t-148.5 -36l-21 -130h-75z"/>
<glyph glyph-name="Egrave" d="M167 880h75l65 -140h-45zM470 643h-320v-228h250v-57h-250v-301h330v-57h-390v700h380v-57z" unicode="È"/>
<glyph glyph-name="Eacute" d="M319 880h75l-95 -140h-45zM470 643h-320v-228h250v-57h-250v-301h330v-57h-390v700h380v-57z" unicode="É"/>
<glyph glyph-name="Ecircumflex" d="M285 834l-85 -94h-45l95 140h70l95 -140h-45zM470 643h-320v-228h250v-57h-250v-301h330v-57h-390v700h380v-57z" unicode="Ê"/>
<glyph glyph-name="Edieresis" d="M153 804q0 21 14.5 36t35.5 15t36 -15t15 -36t-15 -35.5t-36 -14.5t-35.5 14.5t-14.5 35.5zM316 804q0 21 14.5 36t35.5 15t36 -15t15 -36t-15 -35.5t-36 -14.5t-35.5 14.5t-14.5 35.5zM470 643h-320v-228h250v-57h-250v-301h330v-57h-390v700h380v-57z" unicode="Ë"/>
<glyph glyph-name="Igrave" horiz-adv-x="240" unicode="Ì" d="M0 880h75l65 -140h-45zM90 0v700h60v-700h-60z"/>
<glyph glyph-name="Iacute" horiz-adv-x="240" unicode="Í" d="M165 880h75l-95 -140h-45zM90 0v700h60v-700h-60z"/>
<glyph glyph-name="Icircumflex" horiz-adv-x="240" unicode="Î" d="M120 834l-85 -94h-45l95 140h70l95 -140h-45zM90 0v700h60v-700h-60z"/>
<glyph glyph-name="Idieresis" horiz-adv-x="240" unicode="Ï" d="M-12 804q0 21 14.5 36t35.5 15t36 -15t15 -36t-15 -35.5t-36 -14.5t-35.5 14.5t-14.5 35.5zM151 804q0 21 14.5 36t35.5 15t36 -15t15 -36t-15 -35.5t-36 -14.5t-35.5 14.5t-14.5 35.5zM90 0v700h60v-700h-60z"/>
<glyph glyph-name="Eth" horiz-adv-x="705" unicode="Ð" d="M610 350q0 70 -29 131.5t-81 102.5q-76 59 -213 59h-137v-228h200v-57h-200v-301h137q137 0 213 59q52 41 81 102.5t29 131.5zM-10 358v57h100v285h200q151 0 241 -66q65 -48 102 -123t37 -161t-37 -161t-102 -123q-90 -66 -241 -66h-200v358h-100z"/>
<glyph glyph-name="Ntilde" horiz-adv-x="750" unicode="Ñ" d="M277 766l-40 11q1 33 20.5 58t53.5 25q27 0 67 -22.5t57 -22.5q33 0 36 45l40 -11q-1 -33 -20.5 -58t-53.5 -25q-27 0 -67 22.5t-57 22.5q-33 0 -36 -45zM90 0v700h40l470 -583v583h60v-700h-40l-470 583v-583h-60z"/>
<glyph glyph-name="Ograve" horiz-adv-x="766" unicode="Ò" d="M266 880h75l65 -140h-45zM95 350q0 -127 81.5 -215t206.5 -88t206.5 88t81.5 215t-81.5 215t-206.5 88t-206.5 -88t-81.5 -215zM35 350q0 153 100 256.5t248 103.5t248 -103.5t100 -256.5t-100 -256.5t-248 -103.5t-248 103.5t-100 256.5z"/>
<glyph glyph-name="Oacute" horiz-adv-x="766" unicode="Ó" d="M428 880h76l-96 -140h-46zM95 350q0 -127 81.5 -215t206.5 -88t206.5 88t81.5 215t-81.5 215t-206.5 88t-206.5 -88t-81.5 -215zM35 350q0 153 100 256.5t248 103.5t248 -103.5t100 -256.5t-100 -256.5t-248 -103.5t-248 103.5t-100 256.5z"/>
<glyph glyph-name="Ocircumflex" horiz-adv-x="766" unicode="Ô" d="M383 834l-85 -94h-45l95 140h70l95 -140h-45zM95 350q0 -127 81.5 -215t206.5 -88t206.5 88t81.5 215t-81.5 215t-206.5 88t-206.5 -88t-81.5 -215zM35 350q0 153 100 256.5t248 103.5t248 -103.5t100 -256.5t-100 -256.5t-248 -103.5t-248 103.5t-100 256.5z"/>
<glyph glyph-name="Otilde" horiz-adv-x="766" unicode="Õ" d="M286 766l-40 11q1 33 20.5 58t53.5 25q27 0 67 -22.5t57 -22.5q33 0 36 45l40 -11q-1 -33 -20.5 -58t-53.5 -25q-27 0 -67 22.5t-57 22.5q-33 0 -36 -45zM95 350q0 -127 81.5 -215t206.5 -88t206.5 88t81.5 215t-81.5 215t-206.5 88t-206.5 -88t-81.5 -215zM35 350 q0 153 100 256.5t248 103.5t248 -103.5t100 -256.5t-100 -256.5t-248 -103.5t-248 103.5t-100 256.5z"/>
<glyph glyph-name="Odieresis" horiz-adv-x="766" unicode="Ö" d="M251 804q0 21 14.5 36t35.5 15t36 -15t15 -36t-15 -35.5t-36 -14.5t-35.5 14.5t-14.5 35.5zM414 804q0 21 14.5 36t35.5 15t36 -15t15 -36t-15 -35.5t-36 -14.5t-35.5 14.5t-14.5 35.5zM95 350q0 -127 81.5 -215t206.5 -88t206.5 88t81.5 215t-81.5 215t-206.5 88 t-206.5 -88t-81.5 -215zM35 350q0 153 100 256.5t248 103.5t248 -103.5t100 -256.5t-100 -256.5t-248 -103.5t-248 103.5t-100 256.5z"/>
<glyph glyph-name="multiply" horiz-adv-x="528" unicode="×" d="M415 67l-151 151l-151 -151l-38 38l151 151l-151 151l38 38l151 -151l151 151l38 -38l-151 -151l151 -151z"/>
<glyph glyph-name="Oslash" horiz-adv-x="766" unicode="Ø" d="M95 350q0 -139 95 -228l343 489q-67 42 -150 42q-125 0 -206.5 -88t-81.5 -215zM671 350q0 138 -96 228l-343 -489q67 -42 151 -42q125 0 206.5 88t81.5 215zM35 350q0 153 100 256.5t248 103.5q100 0 183 -51l36 51h66l-59 -83q57 -50 89.5 -122t32.5 -155 q0 -153 -100 -256.5t-248 -103.5q-102 0 -184 51l-36 -51h-65l58 83q-57 49 -89 121t-32 156z"/>
<glyph glyph-name="Ugrave" horiz-adv-x="720" unicode="Ù" d="M242 880h75l65 -140h-45zM360 -10q-75 0 -138.5 34t-100.5 93q-41 65 -41 163v420h60v-423q0 -80 31 -130q30 -46 80 -73t109 -27t109 27t80 73q31 50 31 130v423h60v-420q0 -98 -41 -163q-37 -59 -100.5 -93t-138.5 -34z"/>
<glyph glyph-name="Uacute" horiz-adv-x="720" unicode="Ú" d="M403 880h75l-95 -140h-45zM360 -10q-75 0 -138.5 34t-100.5 93q-41 65 -41 163v420h60v-423q0 -80 31 -130q30 -46 80 -73t109 -27t109 27t80 73q31 50 31 130v423h60v-420q0 -98 -41 -163q-37 -59 -100.5 -93t-138.5 -34z"/>
<glyph glyph-name="Ucircumflex" horiz-adv-x="720" unicode="Û" d="M360 834l-85 -94h-45l95 140h70l95 -140h-45zM360 -10q-75 0 -138.5 34t-100.5 93q-41 65 -41 163v420h60v-423q0 -80 31 -130q30 -46 80 -73t109 -27t109 27t80 73q31 50 31 130v423h60v-420q0 -98 -41 -163q-37 -59 -100.5 -93t-138.5 -34z"/>
<glyph glyph-name="Udieresis" horiz-adv-x="720" unicode="Ü" d="M228 804q0 21 14.5 36t35.5 15t36 -15t15 -36t-15 -35.5t-36 -14.5t-35.5 14.5t-14.5 35.5zM391 804q0 21 14.5 36t35.5 15t36 -15t15 -36t-15 -35.5t-36 -14.5t-35.5 14.5t-14.5 35.5zM360 -10q-75 0 -138.5 34t-100.5 93q-41 65 -41 163v420h60v-423q0 -80 31 -130 q30 -46 80 -73t109 -27t109 27t80 73q31 50 31 130v423h60v-420q0 -98 -41 -163q-37 -59 -100.5 -93t-138.5 -34z"/>
<glyph glyph-name="Yacute" horiz-adv-x="560" unicode="Ý" d="M324 880h75l-95 -140h-45zM550 700l-240 -371v-329h-60v329l-240 371h68l202 -313l202 313h68z"/>
<glyph glyph-name="Thorn" horiz-adv-x="580" unicode="Þ" d="M150 226h196q71 0 108 37q36 36 36 87t-36 87q-37 37 -108 37h-196v-248zM90 700h60v-169h199q87 0 137 -42q64 -54 64 -139t-64 -139q-50 -42 -137 -42h-199v-169h-60v700z"/>
<glyph glyph-name="germandbls" horiz-adv-x="570" unicode="ß" d="M196 21l30 45q38 -22 83 -22q68 0 113.5 46t45.5 112q0 81 -63 128q-42 31 -116 31h-39v54h22q60 0 95.5 35.5t35.5 89.5t-35.5 90t-95.5 36q-65 0 -101 -42q-29 -34 -29 -114v-510h-57v510q0 104 47 154q53 56 140 56q84 0 136 -52t52 -128q0 -89 -65 -140 q59 -24 94.5 -77.5t35.5 -120.5q0 -89 -61 -150.5t-152 -61.5q-72 0 -116 31z"/>
<glyph glyph-name="agrave" horiz-adv-x="582" unicode="à" d="M440 144v176q-19 33 -63.5 62.5t-100.5 29.5q-62 0 -110 -39q-64 -53 -64 -145q0 -47 19.5 -87t52.5 -63q49 -34 103 -34q50 0 93 26.5t70 73.5zM497 0h-55v67q-57 -77 -164 -77q-76 0 -136 43q-45 32 -71 83t-26 112q0 115 85 187q63 51 145 51q102 0 167 -73v63h55 v-456zM204 670h75l65 -140h-45z"/>
<glyph glyph-name="aacute" horiz-adv-x="582" unicode="á" d="M440 144v176q-19 33 -63.5 62.5t-100.5 29.5q-62 0 -110 -39q-64 -53 -64 -145q0 -47 19.5 -87t52.5 -63q49 -34 103 -34q50 0 93 26.5t70 73.5zM497 0h-55v67q-57 -77 -164 -77q-76 0 -136 43q-45 32 -71 83t-26 112q0 115 85 187q63 51 145 51q102 0 167 -73v63h55 v-456zM335 670h75l-95 -140h-45z"/>
<glyph glyph-name="acircumflex" horiz-adv-x="582" unicode="â" d="M440 144v176q-19 33 -63.5 62.5t-100.5 29.5q-62 0 -110 -39q-64 -53 -64 -145q0 -47 19.5 -87t52.5 -63q49 -34 103 -34q50 0 93 26.5t70 73.5zM497 0h-55v67q-57 -77 -164 -77q-76 0 -136 43q-45 32 -71 83t-26 112q0 115 85 187q63 51 145 51q102 0 167 -73v63h55 v-456zM295 624l-85 -94h-45l95 140h70l95 -140h-45z"/>
<glyph glyph-name="atilde" horiz-adv-x="582" unicode="ã" d="M440 144v176q-19 33 -63.5 62.5t-100.5 29.5q-62 0 -110 -39q-64 -53 -64 -145q0 -47 19.5 -87t52.5 -63q49 -34 103 -34q50 0 93 26.5t70 73.5zM497 0h-55v67q-57 -77 -164 -77q-76 0 -136 43q-45 32 -71 83t-26 112q0 115 85 187q63 51 145 51q102 0 167 -73v63h55 v-456zM190 556l-40 11q1 33 20.5 58t53.5 25q27 0 67 -22.5t57 -22.5q33 0 36 45l40 -11q-1 -33 -20.5 -58t-53.5 -25q-27 0 -67 22.5t-57 22.5q-33 0 -36 -45z"/>
<glyph glyph-name="adieresis" horiz-adv-x="582" unicode="ä" d="M440 144v176q-19 33 -63.5 62.5t-100.5 29.5q-62 0 -110 -39q-64 -53 -64 -145q0 -47 19.5 -87t52.5 -63q49 -34 103 -34q50 0 93 26.5t70 73.5zM497 0h-55v67q-57 -77 -164 -77q-76 0 -136 43q-45 32 -71 83t-26 112q0 115 85 187q63 51 145 51q102 0 167 -73v63h55 v-456zM160 594q0 21 14.5 36t35.5 15t36 -15t15 -36t-15 -35.5t-36 -14.5t-35.5 14.5t-14.5 35.5zM323 594q0 21 14.5 36t35.5 15t36 -15t15 -36t-15 -35.5t-36 -14.5t-35.5 14.5t-14.5 35.5z"/>
<glyph glyph-name="aring" horiz-adv-x="582" unicode="å" d="M440 144v176q-19 33 -63.5 62.5t-100.5 29.5q-62 0 -110 -39q-64 -53 -64 -145q0 -47 19.5 -87t52.5 -63q49 -34 103 -34q50 0 93 26.5t70 73.5zM497 0h-55v67q-57 -77 -164 -77q-76 0 -136 43q-45 32 -71 83t-26 112q0 115 85 187q63 51 145 51q102 0 167 -73v63h55 v-456zM242 610q0 -21 14.5 -35.5t35.5 -14.5t35.5 14.5t14.5 35.5t-14.5 35.5t-35.5 14.5t-35.5 -14.5t-14.5 -35.5zM202 610q0 38 26 64t64 26t64 -26t26 -64t-26 -64t-64 -26t-64 26t-26 64z"/>
<glyph glyph-name="ae" horiz-adv-x="915" unicode="æ" d="M658 412q-60 0 -102.5 -38t-55.5 -99h311q-9 60 -51.5 98.5t-101.5 38.5zM440 144v176q-19 33 -63.5 62.5t-100.5 29.5q-62 0 -110 -39q-64 -53 -64 -145q0 -47 19.5 -87t52.5 -63q49 -34 103 -34q50 0 93 26.5t70 73.5zM495 0h-53v67q-57 -77 -164 -77q-76 0 -136 43 q-45 32 -71 83t-26 112q0 115 85 187q63 51 145 51q102 0 167 -73v63h53v-70q60 80 163 80q91 0 151.5 -64t60.5 -159q0 -11 -1 -20h-372q3 -76 49.5 -127.5t122.5 -51.5q90 0 146 68l40 -38q-28 -36 -76.5 -60t-109.5 -24q-109 0 -174 84v-74z"/>
<glyph glyph-name="ccedilla" horiz-adv-x="500" unicode="ç" d="M429 107l41 -38q-61 -70 -161 -78l-21 -131h-75l48 132q-91 9 -153.5 73.5t-62.5 162.5t67.5 168t168.5 70q103 0 174 -71l-36 -41q-60 58 -138 58q-73 0 -126 -53.5t-53 -130.5t53.5 -130.5t133.5 -53.5t140 63z"/>
<glyph glyph-name="egrave" d="M420 112l40 -38q-28 -36 -76.5 -60t-109.5 -24q-98 0 -163.5 66.5t-65.5 171.5q0 100 61.5 169t156.5 69q91 0 151.5 -64t60.5 -159q0 -11 -1 -20h-372q3 -76 49.5 -127.5t122.5 -51.5q90 0 146 68zM263 412q-60 0 -102.5 -38t-55.5 -99h311q-9 60 -51.5 98.5 t-101.5 38.5zM169 670h75l65 -140h-45z" unicode="è"/>
<glyph glyph-name="eacute" d="M420 112l40 -38q-28 -36 -76.5 -60t-109.5 -24q-98 0 -163.5 66.5t-65.5 171.5q0 100 61.5 169t156.5 69q91 0 151.5 -64t60.5 -159q0 -11 -1 -20h-372q3 -76 49.5 -127.5t122.5 -51.5q90 0 146 68zM263 412q-60 0 -102.5 -38t-55.5 -99h311q-9 60 -51.5 98.5 t-101.5 38.5zM304 670h75l-95 -140h-45z" unicode="é"/>
<glyph glyph-name="ecircumflex" d="M420 112l40 -38q-28 -36 -76.5 -60t-109.5 -24q-98 0 -163.5 66.5t-65.5 171.5q0 100 61.5 169t156.5 69q91 0 151.5 -64t60.5 -159q0 -11 -1 -20h-372q3 -76 49.5 -127.5t122.5 -51.5q90 0 146 68zM263 412q-60 0 -102.5 -38t-55.5 -99h311q-9 60 -51.5 98.5 t-101.5 38.5zM274 624l-85 -94h-45l95 140h70l95 -140h-45z" unicode="ê"/>
<glyph glyph-name="edieresis" d="M420 112l40 -38q-28 -36 -76.5 -60t-109.5 -24q-98 0 -163.5 66.5t-65.5 171.5q0 100 61.5 169t156.5 69q91 0 151.5 -64t60.5 -159q0 -11 -1 -20h-372q3 -76 49.5 -127.5t122.5 -51.5q90 0 146 68zM263 412q-60 0 -102.5 -38t-55.5 -99h311q-9 60 -51.5 98.5 t-101.5 38.5zM142 594q0 21 14.5 36t35.5 15t36 -15t15 -36t-15 -35.5t-36 -14.5t-35.5 14.5t-14.5 35.5zM305 594q0 21 14.5 36t35.5 15t36 -15t15 -36t-15 -35.5t-36 -14.5t-35.5 14.5t-14.5 35.5z" unicode="ë"/>
<glyph glyph-name="igrave" horiz-adv-x="227" unicode="ì" d="M-9 670h75l65 -140h-45zM85 0v456h57v-456h-57z"/>
<glyph glyph-name="iacute" horiz-adv-x="227" unicode="í" d="M161 670h75l-95 -140h-45zM85 0v456h57v-456h-57z"/>
<glyph glyph-name="icircumflex" horiz-adv-x="227" unicode="î" d="M113 624l-85 -94h-45l95 140h70l95 -140h-45zM85 0v456h57v-456h-57z"/>
<glyph glyph-name="idieresis" horiz-adv-x="227" unicode="ï" d="M-19 594q0 21 14.5 36t35.5 15t36 -15t15 -36t-15 -35.5t-36 -14.5t-35.5 14.5t-14.5 35.5zM144 594q0 21 14.5 36t35.5 15t36 -15t15 -36t-15 -35.5t-36 -14.5t-35.5 14.5t-14.5 35.5zM85 0v456h57v-456h-57z"/>
<glyph glyph-name="eth" horiz-adv-x="560" unicode="ð" d="M406 369q-52 43 -122 43q-80 0 -131 -52.5t-51 -131.5q0 -77 50.5 -130.5t127.5 -53.5t127.5 53.5t50.5 130.5q0 81 -52 141zM245 614l-63 96h66l45 -68l118 68l27 -45l-116 -67l131 -196q62 -95 62 -175q0 -98 -67 -167.5t-168 -69.5t-168 69t-67 169q0 101 67.5 169.5 t171.5 68.5q31 0 66 -10l-76 114l-120 -70l-28 46z"/>
<glyph glyph-name="ntilde" horiz-adv-x="577" unicode="ñ" d="M140 456v-64q56 74 161 74t162 -77q39 -51 39 -146v-243h-57v239q0 75 -26 112q-42 61 -119 61q-49 0 -90.5 -25t-67.5 -70v-317h-57v456h55zM199 556l-40 11q1 33 20.5 58t53.5 25q27 0 67 -22.5t57 -22.5q33 0 36 45l40 -11q-1 -33 -20.5 -58t-53.5 -25q-27 0 -67 22.5 t-57 22.5q-33 0 -36 -45z"/>
<glyph glyph-name="ograve" horiz-adv-x="560" unicode="ò" d="M162 670h75l65 -140h-45zM515 228q0 -99 -67 -168.5t-168 -69.5t-168 69.5t-67 168.5t67 168.5t168 69.5t168 -69.5t67 -168.5zM458 228q0 77 -50.5 130.5t-127.5 53.5t-127.5 -53.5t-50.5 -130.5t50.5 -130.5t127.5 -53.5t127.5 53.5t50.5 130.5z"/>
<glyph glyph-name="oacute" horiz-adv-x="560" unicode="ó" d="M326 670h75l-95 -140h-45zM515 228q0 -99 -67 -168.5t-168 -69.5t-168 69.5t-67 168.5t67 168.5t168 69.5t168 -69.5t67 -168.5zM458 228q0 77 -50.5 130.5t-127.5 53.5t-127.5 -53.5t-50.5 -130.5t50.5 -130.5t127.5 -53.5t127.5 53.5t50.5 130.5z"/>
<glyph glyph-name="ocircumflex" horiz-adv-x="560" unicode="ô" d="M280 624l-85 -94h-45l95 140h70l95 -140h-45zM515 228q0 -99 -67 -168.5t-168 -69.5t-168 69.5t-67 168.5t67 168.5t168 69.5t168 -69.5t67 -168.5zM458 228q0 77 -50.5 130.5t-127.5 53.5t-127.5 -53.5t-50.5 -130.5t50.5 -130.5t127.5 -53.5t127.5 53.5t50.5 130.5z "/>
<glyph glyph-name="otilde" horiz-adv-x="560" unicode="õ" d="M183 556l-40 11q1 33 20.5 58t53.5 25q27 0 67 -22.5t57 -22.5q33 0 36 45l40 -11q-1 -33 -20.5 -58t-53.5 -25q-27 0 -67 22.5t-57 22.5q-33 0 -36 -45zM515 228q0 -99 -67 -168.5t-168 -69.5t-168 69.5t-67 168.5t67 168.5t168 69.5t168 -69.5t67 -168.5zM458 228 q0 77 -50.5 130.5t-127.5 53.5t-127.5 -53.5t-50.5 -130.5t50.5 -130.5t127.5 -53.5t127.5 53.5t50.5 130.5z"/>
<glyph glyph-name="odieresis" horiz-adv-x="560" unicode="ö" d="M148 594q0 21 14.5 36t35.5 15t36 -15t15 -36t-15 -35.5t-36 -14.5t-35.5 14.5t-14.5 35.5zM311 594q0 21 14.5 36t35.5 15t36 -15t15 -36t-15 -35.5t-36 -14.5t-35.5 14.5t-14.5 35.5zM515 228q0 -99 -67 -168.5t-168 -69.5t-168 69.5t-67 168.5t67 168.5t168 69.5 t168 -69.5t67 -168.5zM458 228q0 77 -50.5 130.5t-127.5 53.5t-127.5 -53.5t-50.5 -130.5t50.5 -130.5t127.5 -53.5t127.5 53.5t50.5 130.5z"/>
<glyph glyph-name="divide" horiz-adv-x="530" unicode="÷" d="M215 86q0 21 14.5 35.5t35.5 14.5t35.5 -14.5t14.5 -35.5t-14.5 -35.5t-35.5 -14.5t-35.5 14.5t-14.5 35.5zM215 426q0 21 14.5 35.5t35.5 14.5t35.5 -14.5t14.5 -35.5t-14.5 -35.5t-35.5 -14.5t-35.5 14.5t-14.5 35.5zM475 229h-420v54h420v-54z"/>
<glyph glyph-name="oslash" horiz-adv-x="560" unicode="ø" d="M458 228q0 81 -54 133l-206 -298q38 -19 82 -19q77 0 127.5 53.5t50.5 130.5zM102 228q0 -79 53 -134l207 298q-37 20 -82 20q-77 0 -127.5 -53.5t-50.5 -130.5zM515 228q0 -99 -67 -168.5t-168 -69.5q-61 0 -116 29l-20 -29h-64l41 60q-76 68 -76 178q0 99 67 168.5 t168 69.5q63 0 115 -30l21 30h64l-42 -60q77 -71 77 -178z"/>
<glyph glyph-name="ugrave" horiz-adv-x="567" unicode="ù" d="M427 0v62q-25 -32 -66.5 -52t-87.5 -20q-56 0 -101 25t-70 69q-27 49 -27 129v243h57v-234q0 -79 26 -118q40 -60 115 -60q46 0 87.5 26t64.5 69v317h57v-456h-55zM169 670h75l65 -140h-45z"/>
<glyph glyph-name="uacute" horiz-adv-x="567" unicode="ú" d="M427 0v62q-25 -32 -66.5 -52t-87.5 -20q-56 0 -101 25t-70 69q-27 49 -27 129v243h57v-234q0 -79 26 -118q40 -60 115 -60q46 0 87.5 26t64.5 69v317h57v-456h-55zM322 670h75l-95 -140h-45z"/>
<glyph glyph-name="ucircumflex" horiz-adv-x="567" unicode="û" d="M427 0v62q-25 -32 -66.5 -52t-87.5 -20q-56 0 -101 25t-70 69q-27 49 -27 129v243h57v-234q0 -79 26 -118q40 -60 115 -60q46 0 87.5 26t64.5 69v317h57v-456h-55zM281 624l-85 -94h-45l95 140h70l95 -140h-45z"/>
<glyph glyph-name="udieresis" horiz-adv-x="567" unicode="ü" d="M427 0v62q-25 -32 -66.5 -52t-87.5 -20q-56 0 -101 25t-70 69q-27 49 -27 129v243h57v-234q0 -79 26 -118q40 -60 115 -60q46 0 87.5 26t64.5 69v317h57v-456h-55zM150 594q0 21 14.5 36t35.5 15t36 -15t15 -36t-15 -35.5t-36 -14.5t-35.5 14.5t-14.5 35.5zM313 594 q0 21 14.5 36t35.5 15t36 -15t15 -36t-15 -35.5t-36 -14.5t-35.5 14.5t-14.5 35.5z"/>
<glyph glyph-name="yacute" horiz-adv-x="487" unicode="ý" d="M156 -240h-60l125 277l-206 419h64l171 -354l161 354h61zM282 670h75l-95 -140h-45z"/>
<glyph glyph-name="thorn" horiz-adv-x="582" unicode="þ" d="M85 -240v950h57v-315q66 71 165 71q82 0 145 -51q85 -72 85 -187q0 -61 -26 -112t-71 -83q-60 -43 -136 -43q-104 0 -162 75v-305h-57zM142 320v-176q27 -47 70 -73.5t93 -26.5q54 0 103 34q33 23 52.5 63t19.5 87q0 92 -64 145q-48 39 -110 39q-56 0 -100.5 -29.5 t-63.5 -62.5z"/>
<glyph glyph-name="OE" horiz-adv-x="1101" unicode="Œ" d="M383 47q125 0 206.5 88t81.5 215t-81.5 215t-206.5 88t-206.5 -88t-81.5 -215t81.5 -215t206.5 -88zM1051 643h-320v-228h250v-57h-250v-301h330v-57h-390v145q-46 -72 -122 -113.5t-166 -41.5q-148 0 -248 103.5t-100 256.5t100 256.5t248 103.5q90 0 166 -42t122 -114 v146h380v-57z"/>
<glyph glyph-name="oe" horiz-adv-x="934" unicode="œ" d="M676 412q-60 0 -102.5 -38t-55.5 -99h311q-9 60 -51.5 98.5t-101.5 38.5zM458 228q0 77 -50.5 130.5t-127.5 53.5t-127.5 -53.5t-50.5 -130.5t50.5 -130.5t127.5 -53.5t127.5 53.5t50.5 130.5zM833 112l40 -38q-28 -36 -76.5 -60t-109.5 -24q-68 0 -120.5 33.5 t-81.5 92.5q-28 -58 -81.5 -92t-123.5 -34q-101 0 -168 69.5t-67 168.5t67 168.5t168 69.5q69 0 121.5 -33.5t82.5 -91.5q26 57 76.5 91t115.5 34q91 0 151.5 -64t60.5 -159q0 -11 -1 -20h-372q3 -76 49.5 -127.5t122.5 -51.5q90 0 146 68z"/>
<glyph glyph-name="Scaron" horiz-adv-x="516" unicode="Š" d="M35 108l44 39q77 -100 188 -100q56 0 100 36.5t44 94.5q0 44 -26.5 77t-59.5 48.5t-85.5 38.5t-80.5 40q-95 58 -95 144q0 81 57 132.5t142 51.5q99 0 179 -70l-38 -44q-65 57 -139 57q-60 0 -100.5 -34t-40.5 -90q0 -37 25 -65t56.5 -42t81 -35.5t78.5 -39.5 q106 -66 106 -169q0 -82 -58.5 -135t-145.5 -53q-142 0 -232 118zM172 890l85 -94l85 94h45l-95 -140h-70l-95 140h45z"/>
<glyph glyph-name="scaron" horiz-adv-x="425" unicode="š" d="M122 680l85 -94l85 94h45l-95 -140h-70l-95 140h45zM40 55l35 44q65 -55 138 -55q44 0 74.5 22.5t30.5 57.5q0 32 -27 51t-66 29t-77.5 21.5t-65.5 38t-27 69.5q0 59 47 96t108 37q82 0 147 -44l-30 -47q-58 37 -114 37q-40 0 -70.5 -20.5t-30.5 -57.5q0 -27 27 -44 t66 -27t77.5 -22.5t65.5 -41t27 -72.5q0 -62 -45.5 -99.5t-112.5 -37.5q-107 0 -177 65z"/>
<glyph glyph-name="Ydieresis" horiz-adv-x="560" unicode="Ÿ" d="M148 804q0 21 14.5 36t35.5 15t36 -15t15 -36t-15 -35.5t-36 -14.5t-35.5 14.5t-14.5 35.5zM311 804q0 21 14.5 36t35.5 15t36 -15t15 -36t-15 -35.5t-36 -14.5t-35.5 14.5t-14.5 35.5zM550 700l-240 -371v-329h-60v329l-240 371h68l202 -313l202 313h68z"/>
<glyph glyph-name="circumflex" horiz-adv-x="400" unicode="ˆ" d="M200 624l-85 -94h-45l95 140h70l95 -140h-45z"/>
<glyph glyph-name="tilde" horiz-adv-x="414" unicode="˜" d="M110 556l-40 11q1 33 20.5 58t53.5 25q27 0 67 -22.5t57 -22.5q33 0 36 45l40 -11q-1 -33 -20.5 -58t-53.5 -25q-27 0 -67 22.5t-57 22.5q-33 0 -36 -45z"/>
<glyph glyph-name="pi" horiz-adv-x="530" unicode="π" d="M53 327l-48 29q35 58 93 82q44 18 106 18h321v-54h-100v-271q0 -36 8 -57q9 -22 32 -39l-32 -45q-35 28 -50 58q-15 32 -15 92v262h-156v-402h-57v397q-63 -5 -102 -70z"/>
<glyph glyph-name="endash" horiz-adv-x="450" unicode="–" d="M20 274h410v-49h-410v49z"/>
<glyph glyph-name="emdash" horiz-adv-x="750" unicode="—" d="M20 274h710v-49h-710v49z"/>
<glyph glyph-name="quoteleft" horiz-adv-x="266" unicode="‘" d="M206 700l-71 -240h-75l96 240h50z"/>
<glyph glyph-name="quotesinglbase" horiz-adv-x="266" unicode="‚" d="M60 -140l71 240h75l-96 -240h-50z"/>
<glyph glyph-name="quotedblleft" horiz-adv-x="456" unicode="“" d="M206 700l-71 -240h-75l96 240h50zM396 700l-71 -240h-75l96 240h50z"/>
<glyph glyph-name="quotedblright" horiz-adv-x="456" unicode="”" d="M250 460l71 240h75l-96 -240h-50zM60 460l71 240h75l-96 -240h-50z"/>
<glyph glyph-name="dagger" horiz-adv-x="505" unicode="†" d="M224 -200v596h-174v54h174v250h57v-250h174v-54h-174v-596h-57z"/>
<glyph glyph-name="daggerdbl" horiz-adv-x="505" unicode="‡" d="M50 210h174v186h-174v54h174v250h57v-250h174v-54h-174v-186h174v-54h-174v-356h-57v356h-174v54z"/>
<glyph glyph-name="ellipsis" horiz-adv-x="824" unicode="…" d="M630 42q0 22 15 37t37 15t37 -15t15 -37t-15 -37t-37 -15t-37 15t-15 37zM370 42q0 22 15 37t37 15t37 -15t15 -37t-15 -37t-37 -15t-37 15t-15 37zM110 42q0 22 15 37t37 15t37 -15t15 -37t-15 -37t-37 -15t-37 15t-15 37z"/>
<glyph glyph-name="perthousand" horiz-adv-x="1185" unicode="‰" d="M1072 169q0 54 -35 91.5t-86 37.5t-86 -37.5t-35 -91.5t35 -91.5t86 -37.5t86 37.5t35 91.5zM267 0h-52l408 700h52zM355 531q0 54 -35 91.5t-86 37.5t-86 -37.5t-35 -91.5t35 -91.5t86 -37.5t86 37.5t35 91.5zM777 169q0 54 -35 91.5t-86 37.5t-86 -37.5t-35 -91.5 t35 -91.5t86 -37.5t86 37.5t35 91.5zM60 531q0 75 50 127t124 52t124 -52t50 -127t-50 -127t-124 -52t-124 52t-50 127zM482 169q0 75 50 127t124 52q47 0 85.5 -22t61.5 -60q23 38 62 60t86 22q74 0 124 -52t50 -127t-50 -127t-124 -52q-47 0 -86 22t-62 60 q-49 -82 -147 -82q-74 0 -124 52t-50 127z"/>
<glyph glyph-name="guilsinglleft" horiz-adv-x="335" unicode="‹" d="M224 420h71l-158 -185l158 -185h-71l-144 168v34z"/>
<glyph glyph-name="guilsinglright" horiz-adv-x="335" unicode="›" d="M40 420h71l144 -168v-34l-144 -168h-71l158 185z"/>
<glyph glyph-name="fraction" horiz-adv-x="470" unicode="⁄" d="M57 0h-52l408 700h52z"/>
<glyph glyph-name="Euro" horiz-adv-x="612" unicode="€" d="M5 401v54h81q26 114 102.5 184.5t187.5 70.5q136 0 212 -117l-49 -33q-61 93 -163 93q-87 0 -146.5 -54t-82.5 -144h278v-54h-287q-3 -25 -3 -51t3 -50h287v-54h-277q23 -90 84.5 -144.5t147.5 -54.5q61 0 101.5 21t77.5 71l48 -33q-80 -116 -225 -116q-113 0 -191.5 70 t-104.5 186h-81v54h72q-2 32 -2 50q0 17 2 51h-72z"/>
<glyph glyph-name="trademark" horiz-adv-x="837" unicode="™" d="M720 587l-133 -212h-28l-133 212v-270h-47v383h27l167 -264l167 264h27v-383h-47v270zM70 700h265v-44h-109v-339h-47v339h-109v44z"/>
<glyph glyph-name="arrowleft" horiz-adv-x="727" unicode="←" d="M139 274h528v-49h-528l206 -205h-69l-216 215v29l216 215h69z"/>
<glyph glyph-name="arrowright" horiz-adv-x="727" unicode="→" d="M60 274h528l-206 205h69l216 -215v-29l-216 -215h-69l206 205h-528v49z"/>
<glyph glyph-name="partialdiff" horiz-adv-x="560" unicode="∂" d="M406 369q-52 43 -122 43q-80 0 -131 -52.5t-51 -131.5q0 -77 50.5 -130.5t127.5 -53.5t127.5 53.5t50.5 130.5q0 81 -52 141zM350 456l-168 254h66l205 -308q62 -95 62 -175q0 -98 -67 -167.5t-168 -69.5t-168 69t-67 169q0 101 67.5 169.5t171.5 68.5q31 0 66 -10z"/>
<glyph glyph-name="product" horiz-adv-x="550" unicode="∏" d="M373 0v646h-196v-646h-57v646h-100v54h510v-54h-100v-646h-57z"/>
<glyph glyph-name="summation" horiz-adv-x="555" unicode="∑" d="M448 510v136h-335l269 -267v-34l-283 -291h359v136h57v-190h-510v34l317 327l-307 305v34h490v-190h-57z"/>
<glyph glyph-name="minus" horiz-adv-x="530" unicode="−" d="M475 229h-420v54h420v-54z"/>
<glyph glyph-name="radical" horiz-adv-x="558" unicode="√" d="M491 700h57l-244 -700h-37l-160 402h-117v54h153l140 -351z"/>
<glyph glyph-name="infinity" horiz-adv-x="750" unicode="∞" d="M663 277q0 60 -34.5 96.5t-85.5 36.5q-47 0 -76.5 -33.5t-60.5 -99.5q20 -43 35 -67.5t42 -45t60 -20.5q51 0 85.5 36.5t34.5 96.5zM207 144q47 0 76 33.5t61 99.5q-16 32 -27 51t-28 40.5t-37 31.5t-45 10q-52 0 -86 -36.5t-34 -96.5t34.5 -96.5t85.5 -36.5zM720 277 q0 -79 -50.5 -133t-126.5 -54q-60 0 -98.5 33t-69.5 91q-32 -59 -70 -91.5t-98 -32.5q-76 0 -126.5 54t-50.5 133t50.5 133t126.5 54q60 0 98 -33t70 -92q31 59 69.5 92t98.5 33q76 0 126.5 -54t50.5 -133z"/>
<glyph glyph-name="approxequal" d="M87 283l-47 23q31 108 122 108q35 0 71 -22t67.5 -44t55.5 -22q51 0 77 77l47 -23q-31 -108 -122 -108q-35 0 -71 22t-67.5 44t-55.5 22q-51 0 -77 -77zM87 109l-47 23q31 108 122 108q35 0 71 -22t67.5 -44t55.5 -22q51 0 77 77l47 -23q-31 -108 -122 -108q-35 0 -71 22 t-67.5 44t-55.5 22q-51 0 -77 -77z" unicode="≈"/>
<glyph glyph-name="notequal" horiz-adv-x="530" unicode="≠" d="M423 476l-61 -105h113v-54h-144l-70 -122h214v-54h-245l-60 -105h-63l60 105h-112v54h143l70 122h-213v54h244l61 105h63z"/>
<glyph glyph-name="lessequal" horiz-adv-x="530" unicode="≤" d="M475 149v-58l-420 171v34l420 171v-58l-319 -130zM475 26h-420v54h420v-54z"/>
<glyph glyph-name="greaterequal" horiz-adv-x="530" unicode="≥" d="M55 91v58l319 130l-319 130v58l420 -171v-34zM475 26h-420v54h420v-54z"/>
<glyph glyph-name="lozenge" horiz-adv-x="521" unicode="◊" d="M83 350l177 -279l178 279l-178 278zM279 0h-37l-212 333v34l212 333h37l212 -333v-34z"/>
</font>
</defs>
</svg>
